开启辅助访问 每日签到 切换到宽版

读屏族音乐论坛

 找回密码
 立即注册
用心灵感知世界,用爱心成就未来,欢迎来到读屏族音乐论坛!这里是视障朋友温馨的港湾,也是明眼朋友娱乐的家园。“读屏族”人群是借助读屏工具操作电脑和手机上网的视障朋友(盲人),他们虽然有视力缺陷,但超越常人的听力,使他们对音乐有着自己的执着与珍爱。是音乐让我们相聚,音乐让我们快乐!忘我!陶醉!
查看: 81|回复: 5

[外语] Apathie《Trugbilder einer Erinnerung》(2012)[FLAC整轨][百度盘]

  [复制链接]
  • TA的每日心情
    开心
    3 小时前
  • 签到天数: 19 天

    [LV.4]偶尔看看III

    11

    主题

    29

    帖子

    8 小时

    在线时间

    初级会员

    Rank: 1

    威望
    119
    魅力
    119
    金钱
    130
    注册时间
    2019-3-7
    最后登录
    2019-3-25
    阅读权限
    20
    发表于 2019-3-15 10:30:49 | 显示全部楼层 |阅读模式

    马上注册,结交更多好友,享用更多功能,让你轻松玩转社区。

    您需要 登录 才可以下载或查看,没有帐号?立即注册

    x
    让香港走进你的生活!!!  隆重推出:香港外交代购、娜娜为您服务[微笑] 。本站担保,绝对正品,原价代购,发货速捷,信誉至上。代购VX微信或QQ:383963078。让香港走进你的生活!!! 隆重推出:香港外交代购、娜娜为您服务[微笑] 。本站担保,绝对正品,原价代购,发货速捷,信誉至上。代购VX微信或QQ:383963078。
    楼主 jry123说:
    资源来自国外网站,感谢原创分享!
    01.jpg

    02.jpg

    03.jpg


    Жанр: Black Metal
    Страна-производитель диска: pic Germany
    Издатель (лейбл): Black Blood Records
    Номер по каталогу: BBRE 014
    Страна: pic Germany
    Год издания: 2012
    Аудиокодек: pic FLAC (*.flac)
    Тип рипа: image+.cue
    Битрейт аудио: lossless
    Продолжительность: 48:38
    Источник (релизер): Original CD
    Наличие сканов в содержимом раздачи: да

    Треклист:
    01 Dämmerung (Intro) 02:55
    02 Unter dem Banner der Leere 04:14
    03 Pestilenz 04:50
    04 Schattenwurf alter Götzen 06:25
    05 Täuschung 05:36
    06 Schwedter Gedanken 05:42
    07 Einöde 05:22
    08 Ruinen 04:13
    09 Licht am Horizont 07:25
    10 Heimat (Outro) 01:57




    百度链接:

    游客,如果您要查看本帖隐藏内容请回复



    评分

    参与人数 1威望 +5 金钱 +5 魅力 +5 等级积分 +5 收起 理由
    哥特 + 5 + 5 + 5 + 5

    查看全部评分

    回复

    使用道具 举报

  • TA的每日心情
    开心
    3 小时前
  • 签到天数: 19 天

    [LV.4]偶尔看看III

    11

    主题

    29

    帖子

    8 小时

    在线时间

    初级会员

    Rank: 1

    威望
    119
    魅力
    119
    金钱
    130
    注册时间
    2019-3-7
    最后登录
    2019-3-25
    阅读权限
    20
     楼主| 发表于 2019-3-15 10:31:36 | 显示全部楼层
    沙发 jry123说:
    Exact Audio Copy V1.0 beta 3 from 29. August 2011

    EAC extraction logfile from 2. April 2013, 6:48

    Apathie / Trugbilder einer Erinnerung

    Used drive  : ASUS    DRW-22B2S   Adapter: 0  ID: 0

    Read mode               : Secure
    Utilize accurate stream : Yes
    Defeat audio cache      : Yes
    Make use of C2 pointers : No

    Read offset correction                      : 6
    Overread into Lead-In and Lead-Out          : No
    Fill up missing offset samples with silence : Yes
    Delete leading and trailing silent blocks   : No
    Null samples used in CRC calculations       : Yes
    Used interface                              : Native Win32 interface for Win NT & 2000

    Used output format              : User Defined Encoder
    Selected bitrate                : 128 kBit/s
    Quality                         : High
    Add ID3 tag                     : No
    Command line compressor         : C:\Program Files\Exact Audio Copy\Flac\flac.exe
    Additional command line options : -V -8 -T "Date=%year%" -T "Genre=%genre%" %source%


    TOC of the extracted CD

         Track |   Start  |  Length  | Start sector | End sector
        ---------------------------------------------------------
            1  |  0:00.00 |  2:55.64 |         0    |    13188   
            2  |  2:55.64 |  4:14.19 |     13189    |    32257   
            3  |  7:10.08 |  4:50.44 |     32258    |    54051   
            4  | 12:00.52 |  6:29.49 |     54052    |    83275   
            5  | 18:30.26 |  5:36.56 |     83276    |   108531   
            6  | 24:07.07 |  5:42.05 |    108532    |   134186   
            7  | 29:49.12 |  5:22.69 |    134187    |   158405   
            8  | 35:12.06 |  4:13.15 |    158406    |   177395   
            9  | 39:25.21 |  7:25.47 |    177396    |   210817   
           10  | 46:50.68 |  1:46.52 |    210818    |   218819   


    Range status and errors

    Selected range

         Filename C:\1st0m1n\!!! ignore the ''True Metal Forum'' asshole owner - name sathus aka. ligfaerd !!!\Apathie - Trugbilder einer Erinnerung.wav

         Peak level 100.0 %
         Extraction speed 8.1 X
         Range quality 99.9 %
         Test CRC 52082A89
         Copy CRC 52082A89
         Copy OK

    No errors occurred


    AccurateRip summary

    Track  1  not present in database
    Track  2  not present in database
    Track  3  not present in database
    Track  4  not present in database
    Track  5  not present in database
    Track  6  not present in database
    Track  7  not present in database
    Track  8  not present in database
    Track  9  not present in database
    Track 10  not present in database

    None of the tracks are present in the AccurateRip database

    End of status report

    ---- CUETools DB Plugin V2.1.4

    [CTDB TOCID: flgzijviFFx4hbIw0n0qLaCbfMY-] disk not present in database
    Submit result: flgzijviFFx4hbIw0n0qLaCbfMY- has been uploaded


    ==== Log checksum 0D16BDC34A8952A2EA180CF702728821442F70E0A65E752FC5251277BAE91855 ====
    回复 支持 反对

    使用道具 举报

  • TA的每日心情
    开心
    昨天 09:19
  • 签到天数: 208 天

    [LV.7]常住居民III

    0

    主题

    762

    帖子

    104 小时

    在线时间

    中级会员

    Rank: 2

    威望
    1087
    魅力
    1087
    金钱
    434
    注册时间
    2015-7-13
    最后登录
    2019-3-24
    阅读权限
    30
    发表于 2019-3-16 10:41:08 | 显示全部楼层
    板凳 jrz2004说:
    精品之碟呀,谢啦。
    回复 支持 反对

    使用道具 举报

  • TA的每日心情
    擦汗
    2019-3-14 19:44
  • 签到天数: 2 天

    [LV.1]初来乍到

    28

    主题

    66

    帖子

    5 小时

    在线时间

    初级会员

    Rank: 1

    威望
    56
    魅力
    56
    金钱
    204
    注册时间
    2019-2-10
    最后登录
    2019-3-24
    阅读权限
    20
    发表于 2019-3-16 10:54:33 | 显示全部楼层
    地板 lx84454335说:
    谢谢分享,非常感谢.
    回复 支持 反对

    使用道具 举报

  • TA的每日心情
    郁闷
    2017-7-10 08:57
  • 签到天数: 337 天

    [LV.8]以坛为家I

    6

    主题

    1598

    帖子

    440 小时

    在线时间

    高级会员

    Rank: 3Rank: 3

    威望
    2285
    魅力
    2333
    金钱
    9
    注册时间
    2015-2-19
    最后登录
    2019-3-24
    阅读权限
    50
    发表于 2019-3-16 20:36:59 | 显示全部楼层
    5楼 寂静森林说:
    感谢分享好音乐,去听听
    回复 支持 反对

    使用道具 举报

  • TA的每日心情
    开心
    前天 09:54
  • 签到天数: 21 天

    [LV.4]偶尔看看III

    1

    主题

    34

    帖子

    9 小时

    在线时间

    初级会员

    Rank: 1

    威望
    34
    魅力
    34
    金钱
    30
    注册时间
    2018-7-26
    最后登录
    2019-3-24
    阅读权限
    20
    发表于 前天 14:54 | 显示全部楼层
    6楼 lywmmm说:
    感谢楼主分享好歌曲,辛苦了
    回复 支持 反对

    使用道具 举报

    您需要登录后才可以回帖 登录 | 立即注册

    本版积分规则

    关于我们|免责声明|手机版|小黑屋| 读屏族音乐论坛 ( 鄂ICP备15000846号 )  

    读屏族音乐论坛上的资源来源于互联网搜索,本站不提供下载和存储。
    如果页面信息侵犯了您的权益,请联系管理员邮箱: dupingzu@163.com 我们将在第一时间删除。

    GMT+8, 2019-3-25 14:00 , Processed in 0.423659 second(s), 28 queries , Gzip On.

    Powered by Discuz! X3.2

    © 2001-2013 Comsenz Inc.