开启辅助访问 每日签到 切换到宽版

读屏族音乐论坛

 找回密码
 立即注册
用心灵感知世界,用爱心成就未来,欢迎来到读屏族音乐论坛!这里是视障朋友温馨的港湾,也是明眼朋友娱乐的家园。“读屏族”人群是借助读屏工具操作电脑和手机上网的视障朋友(盲人),他们虽然有视力缺陷,但超越常人的听力,使他们对音乐有着自己的执着与珍爱。是音乐让我们相聚,音乐让我们快乐!忘我!陶醉!
查看: 132|回复: 6

[外语] Andre van Duin《Kerstfeest met Andre》(1987)[FLAC分轨][百度盘]

  [复制链接]
  • TA的每日心情
    开心
    4 天前
  • 签到天数: 49 天

    [LV.5]常住居民I

    11

    主题

    31

    帖子

    14 小时

    在线时间

    初级会员

    Rank: 1

    威望
    121
    魅力
    121
    金钱
    132
    注册时间
    2019-3-7
    最后登录
    2019-5-20
    阅读权限
    20
    发表于 2019-3-15 10:04:03 | 显示全部楼层 |阅读模式

    马上注册,结交更多好友,享用更多功能,让你轻松玩转社区。

    您需要 登录 才可以下载或查看,没有帐号?立即注册

    x
    让香港走进你的生活!!!  隆重推出:香港外交代购、娜娜为您服务[微笑] 。本站担保,绝对正品,原价代购,发货速捷,信誉至上。代购VX微信或QQ:383963078。让香港走进你的生活!!! 隆重推出:香港外交代购、娜娜为您服务[微笑] 。本站担保,绝对正品,原价代购,发货速捷,信誉至上。代购VX微信或QQ:383963078。
    楼主 jry123说:


    资源来自国外网站,感谢原创分享!

    111.jpg

    112.jpg

    113.jpg


    专辑名称:Kerstfeest met Andre
    专辑歌手:Andre van Duin
    发行时间:1987

    曲目列表:
    01. Andre van Duin - Jingle Bells - (02:57)
    02. Andre van Duin - Vaak Droom Ik Van Een Wit Kerstfeest - (04:51)
    03. Andre van Duin - Hoe Leit Dit Kindeke - (03:45)
    04. Andre van Duin - Samen Door Het Witte Wonderland - (03:16)
    05. Andre van Duin - Ik Wens U Een Prettig Kerstfeest - (01:40)
    06. Andre van Duin - Hoor Je Hoe De Eng'len Zingen - (04:18)
    07. Andre van Duin - Stille Nacht - (04:09)
    08. Andre van Duin - Vrede Op Aard' - (02:19)
    09. Andre van Duin - Komt Allen Tesamen - (04:18)
    10. Andre van Duin - Kerstmis Bij Het Open Haardvuur - (02:06)





    百度链接地址:

    游客,如果您要查看本帖隐藏内容请回复



    评分

    参与人数 1威望 +5 金钱 +5 魅力 +5 等级积分 +5 收起 理由
    哥特 + 5 + 5 + 5 + 5

    查看全部评分

    回复

    使用道具 举报

  • TA的每日心情
    开心
    4 天前
  • 签到天数: 49 天

    [LV.5]常住居民I

    11

    主题

    31

    帖子

    14 小时

    在线时间

    初级会员

    Rank: 1

    威望
    121
    魅力
    121
    金钱
    132
    注册时间
    2019-3-7
    最后登录
    2019-5-20
    阅读权限
    20
     楼主| 发表于 2019-3-15 10:04:42 | 显示全部楼层
    沙发 jry123说:
    Exact Audio Copy V1.3 from 2. September 2016

    EAC extraction logfile from 26. January 2019, 14:30

    Andre van Duin / Kerstfeest met Andre

    Used drive  : TSSTcorpCDDVDW TS-L633C   Adapter: 1  ID: 0

    Read mode               : Secure
    Utilize accurate stream : Yes
    Defeat audio cache      : Yes
    Make use of C2 pointers : No

    Read offset correction                      : 6
    Overread into Lead-In and Lead-Out          : No
    Fill up missing offset samples with silence : Yes
    Delete leading and trailing silent blocks   : No
    Null samples used in CRC calculations       : Yes
    Used interface                              : Native Win32 interface for Win NT & 2000
    Gap handling                                : Appended to previous track

    Used output format              : User Defined Encoder
    Selected bitrate                : 1024 kBit/s
    Quality                         : High
    Add ID3 tag                     : No
    Command line compressor         : C:\Program Files (x86)\Exact Audio Copy\Flac\flac.exe
    Additional command line options : -8 -V -T "ARTIST=%artist%" -T "TITLE=%title%" -T "ALBUM=%albumtitle%" -T "DATE=%year%" -T "TRACKNUMBER=%tracknr%" -T "GENRE=%genre%" -T "PERFORMER=%albuminterpret%" -T "COMPOSER=%composer%" %haslyrics%--tag-from-file=LYRICS="%lyricsfile%"%haslyrics% -T "ALBUMARTIST=%albumartist%" -T "DISCNUMBER=%cdnumber%" -T "TOTALDISCS=%totalcds%" -T "TOTALTRACKS=%numtracks%" -T "COMMENT=%comment%" %source% -o %dest%


    TOC of the extracted CD

         Track |   Start  |  Length  | Start sector | End sector
        ---------------------------------------------------------
            1  |  0:00.00 |  2:57.30 |         0    |    13304   
            2  |  2:57.30 |  4:50.67 |     13305    |    35121   
            3  |  7:48.22 |  3:44.60 |     35122    |    51981   
            4  | 11:33.07 |  3:16.05 |     51982    |    66686   
            5  | 14:49.12 |  1:40.18 |     66687    |    74204   
            6  | 16:29.30 |  4:17.70 |     74205    |    93549   
            7  | 20:47.25 |  4:08.40 |     93550    |   112189   
            8  | 24:55.65 |  2:19.30 |    112190    |   122644   
            9  | 27:15.20 |  4:17.47 |    122645    |   141966   
           10  | 31:32.67 |  2:05.58 |    141967    |   151399   


    Track  1

         Filename X:\Andre van Duin - Kerstfeest met Andre (1987) CD FLAC\01 - Jingle Bells.wav

         Pre-gap length  0:00:02.00

         Peak level 86.7 %
         Extraction speed 1.5 X
         Track quality 100.0 %
         Test CRC 19793709
         Copy CRC 19793709
         Accurately ripped (confidence 2)  [51AE9ADF]  (AR v2)
         Copy OK

    Track  2

         Filename X:\Andre van Duin - Kerstfeest met Andre (1987) CD FLAC\02 - Vaak Droom Ik Van Een Wit Kerstfeest.wav

         Pre-gap length  0:00:01.53

         Peak level 66.9 %
         Extraction speed 1.8 X
         Track quality 100.0 %
         Test CRC 911484D8
         Copy CRC 911484D8
         Accurately ripped (confidence 1)  [96E40C0D]  (AR v2)
         Copy OK

    Track  3

         Filename X:\Andre van Duin - Kerstfeest met Andre (1987) CD FLAC\03 - Hoe Leit Dit Kindeke.wav

         Pre-gap length  0:00:01.62

         Peak level 66.9 %
         Extraction speed 1.9 X
         Track quality 100.0 %
         Test CRC B5300692
         Copy CRC B5300692
         Accurately ripped (confidence 2)  [C4C8782D]  (AR v2)
         Copy OK

    Track  4

         Filename X:\Andre van Duin - Kerstfeest met Andre (1987) CD FLAC\04 - Samen Door Het Witte Wonderland.wav

         Pre-gap length  0:00:01.16

         Peak level 65.1 %
         Extraction speed 1.9 X
         Track quality 100.0 %
         Test CRC BB177E7B
         Copy CRC BB177E7B
         Accurately ripped (confidence 1)  [AF56E810]  (AR v2)
         Copy OK

    Track  5

         Filename X:\Andre van Duin - Kerstfeest met Andre (1987) CD FLAC\05 - Ik Wens U Een Prettig Kerstfeest.wav

         Pre-gap length  0:00:01.40

         Peak level 65.7 %
         Extraction speed 1.1 X
         Track quality 99.8 %
         Test CRC 6F01A509
         Copy CRC 6F01A509
         Accurately ripped (confidence 2)  [3FF8D144]  (AR v2)
         Copy OK

    Track  6

         Filename X:\Andre van Duin - Kerstfeest met Andre (1987) CD FLAC\06 - Hoor Je Hoe De Eng'len Zingen.wav

         Pre-gap length  0:00:01.13

         Peak level 91.0 %
         Extraction speed 1.7 X
         Track quality 99.9 %
         Test CRC 290F2B5F
         Copy CRC 290F2B5F
         Accurately ripped (confidence 1)  [6F1EF81C]  (AR v2)
         Copy OK

    Track  7

         Filename X:\Andre van Duin - Kerstfeest met Andre (1987) CD FLAC\07 - Stille Nacht.wav

         Pre-gap length  0:00:01.26

         Peak level 60.6 %
         Extraction speed 2.4 X
         Track quality 100.0 %
         Test CRC 5D64C848
         Copy CRC 5D64C848
         Accurately ripped (confidence 1)  [013D6B6A]  (AR v2)
         Copy OK

    Track  8

         Filename X:\Andre van Duin - Kerstfeest met Andre (1987) CD FLAC\08 - Vrede Op Aard'.wav

         Pre-gap length  0:00:01.33

         Peak level 63.0 %
         Extraction speed 2.3 X
         Track quality 100.0 %
         Test CRC 04AF651A
         Copy CRC 04AF651A
         Accurately ripped (confidence 1)  [EE0820C6]  (AR v2)
         Copy OK

    Track  9

         Filename X:\Andre van Duin - Kerstfeest met Andre (1987) CD FLAC\09 - Komt Allen Tesamen.wav

         Pre-gap length  0:00:01.24

         Peak level 61.7 %
         Extraction speed 2.0 X
         Track quality 99.9 %
         Test CRC B43BA170
         Copy CRC B43BA170
         Accurately ripped (confidence 1)  [B9642CCB]  (AR v2)
         Copy OK

    Track 10

         Filename X:\Andre van Duin - Kerstfeest met Andre (1987) CD FLAC\10 - Kerstmis Bij Het Open Haardvuur.wav

         Pre-gap length  0:00:00.80

         Peak level 51.8 %
         Extraction speed 2.4 X
         Track quality 100.0 %
         Test CRC 1040FE01
         Copy CRC 1040FE01
         Accurately ripped (confidence 2)  [E3F1BA40]  (AR v2)
         Copy OK


    All tracks accurately ripped

    No errors occurred

    End of status report

    ---- CUETools DB Plugin V2.1.6

    [CTDB TOCID: DE9uhd9p9GdpAHm_awIpNN5KAC0-] found
    Submit result: already submitted
    Track | CTDB Status
      1   | (7/7) Accurately ripped
      2   | (7/7) Accurately ripped
      3   | (7/7) Accurately ripped
      4   | (7/7) Accurately ripped
      5   | (7/7) Accurately ripped
      6   | (6/7) Accurately ripped
      7   | (7/7) Accurately ripped
      8   | (7/7) Accurately ripped
      9   | (6/7) Accurately ripped
    10   | (7/7) Accurately ripped


    ==== Log checksum 815A003610821285950ABE4484F6EB4422F5857915E8B544BE55ECADF6219D83 ====
    回复 支持 反对

    使用道具 举报

  • TA的每日心情
    擦汗
    2019-3-14 19:44
  • 签到天数: 2 天

    [LV.1]初来乍到

    29

    主题

    77

    帖子

    6 小时

    在线时间

    初级会员

    Rank: 1

    威望
    67
    魅力
    67
    金钱
    291
    注册时间
    2019-2-10
    最后登录
    2019-5-21
    阅读权限
    20
    发表于 2019-3-16 10:57:28 | 显示全部楼层
    板凳 lx84454335说:
    谢谢分享、非常感谢.
    回复 支持 反对

    使用道具 举报

  • TA的每日心情
    开心
    7 天前
  • 签到天数: 226 天

    [LV.7]常住居民III

    0

    主题

    831

    帖子

    114 小时

    在线时间

    中级会员

    Rank: 2

    威望
    1156
    魅力
    1156
    金钱
    276
    注册时间
    2015-7-13
    最后登录
    2019-5-23
    阅读权限
    30
    发表于 2019-3-16 11:12:33 | 显示全部楼层
    地板 jrz2004说:
    好碟要收藏,谢啦。
    回复 支持 反对

    使用道具 举报

  • TA的每日心情
    郁闷
    2017-7-10 08:57
  • 签到天数: 337 天

    [LV.8]以坛为家I

    15

    主题

    1739

    帖子

    469 小时

    在线时间

    高级会员

    Rank: 3Rank: 3

    威望
    2936
    魅力
    2984
    金钱
    37
    注册时间
    2015-2-19
    最后登录
    2019-5-23
    阅读权限
    50
    发表于 2019-3-16 20:34:01 | 显示全部楼层
    5楼 寂静森林说:
    看看,多谢分享
    回复 支持 反对

    使用道具 举报

  • TA的每日心情
    开心
    2017-3-6 08:46
  • 签到天数: 1 天

    [LV.1]初来乍到

    0

    主题

    231

    帖子

    102 小时

    在线时间

    VIP会员

    Rank: 13Rank: 13Rank: 13

    威望
    751
    魅力
    751
    金钱
    395
    注册时间
    2017-1-31
    最后登录
    2019-5-8
    阅读权限
    130

    热心会员勋章

    发表于 2019-3-20 09:28:55 | 显示全部楼层
    6楼 老猫说:
    没听说过这歌手,拿走了,多谢楼主
    回复 支持 反对

    使用道具 举报

  • TA的每日心情
    开心
    昨天 20:54
  • 签到天数: 33 天

    [LV.5]常住居民I

    1

    主题

    54

    帖子

    11 小时

    在线时间

    初级会员

    Rank: 1

    威望
    54
    魅力
    54
    金钱
    50
    注册时间
    2018-7-26
    最后登录
    2019-5-22
    阅读权限
    20
    发表于 2019-3-23 14:56:30 | 显示全部楼层
    7楼 lywmmm说:
    感谢楼主分享好歌曲,没听过的歌,拿来听听
    回复 支持 反对

    使用道具 举报

    您需要登录后才可以回帖 登录 | 立即注册

    本版积分规则

    关于我们|免责声明|手机版|小黑屋| 读屏族音乐论坛 ( 鄂ICP备15000846号 )  

    读屏族音乐论坛上的资源来源于互联网搜索,本站不提供下载和存储。
    如果页面信息侵犯了您的权益,请联系管理员邮箱: dupingzu@163.com 我们将在第一时间删除。

    GMT+8, 2019-5-23 23:01 , Processed in 0.329380 second(s), 29 queries , Gzip On.

    Powered by Discuz! X3.2

    © 2001-2013 Comsenz Inc.