开启辅助访问 每日签到 切换到宽版

读屏族音乐论坛

 找回密码
 立即注册
用心灵感知世界,用爱心成就未来,欢迎来到读屏族音乐论坛!这里是视障朋友温馨的港湾,也是明眼朋友娱乐的家园。“读屏族”人群是借助读屏工具操作电脑和手机上网的视障朋友(盲人),他们虽然有视力缺陷,但超越常人的听力,使他们对音乐有着自己的执着与珍爱。是音乐让我们相聚,音乐让我们快乐!忘我!陶醉!
查看: 190|回复: 2

陈洁丽《Purely lily》正版原抓[WAV/百度云]

  [复制链接]
  • TA的每日心情
    郁闷
    2018-5-13 11:19
  • 签到天数: 24 天

    [LV.4]偶尔看看III

    69

    主题

    161

    帖子

    52 小时

    在线时间

    贵宾

    Rank: 10Rank: 10

    威望
    1325
    魅力
    1352
    金钱
    1579
    注册时间
    2017-11-22
    最后登录
    2019-6-18
    阅读权限
    120
    发表于 2018-4-21 19:19:42 | 显示全部楼层 |阅读模式

    马上注册,结交更多好友,享用更多功能,让你轻松玩转社区。

    您需要 登录 才可以下载或查看,没有帐号?立即注册

    x
    楼主 inyongxia说:
    三证齐全
    专辑名称:Purely lily
    专辑歌手:陈洁丽
    发行时间:2012
    专辑编码:WMHQ7105
    专辑版本:日本压制 HQCD
    专辑介绍
    HIFI天后 陈洁丽 Purely lily HQCD 日本压制
    特别追加2首新灌录从未曝光作品
    包以正重新编曲Bee GeeS经典" Words"广东版「不忍告别」
    及"世界不可怕 " 国语版「一瞬间」

    专辑曲目
    01.不忍告别
    02.求你讲清楚
    03.小风波
    04.萤火
    05.红叶斜落我心寂寞时
    06.没有你还是爱你
    07.片段
    08.中间人
    09.天荒爱未老
    10.世界不可怕
    11.投其所好
    12.一瞬间(国)

    游客,如果您要查看本帖隐藏内容请回复


    Exact Audio Copy V0.99 prebeta 3 from 28. July 2007

    EAC 抓取日志文件从8. 四月 2018, 15:03

    陈洁丽 / Purely (HQCD)

    使用驱动器  :HL-DT-STDVDRAM GH22NS50   Adapter: 1  ID: 0

    读取模式     : 保护
    使用精确流   : 是
    废除音频缓冲 : 是
    使用 C2 指针 : 否

    读取偏移校正                   : 106
    读取 Lead-In 和 Lead-Out       : 否
    用静音填充抓取中丢失偏移的采样 : 是
    去除首尾静音块                 : 否
    在 CRC 计算中使用了空样本      : 是
    已用接口                       : 已安装外部 ASPI 接口

    所用输出格式 : 内部 WAV 函数
    样本格式     : 44.100 Hz;16 Bit;立体声
    使用压缩偏移 : 7


    被抓轨 CD 的 TOC

         音轨 |   开始   |   长度   | 起始扇区 | 结尾扇区
        --------------------------------------------------
           1  |  0:00.00 |  4:22.65 |       0  |   19714  
           2  |  4:22.65 |  4:07.64 |   19715  |   38303  
           3  |  8:30.54 |  3:37.00 |   38304  |   54578  
           4  | 12:07.54 |  4:19.58 |   54579  |   74061  
           5  | 16:27.37 |  4:08.39 |   74062  |   92700  
           6  | 20:36.01 |  5:16.66 |   92701  |  116466  
           7  | 25:52.67 |  4:34.21 |  116467  |  137037  
           8  | 30:27.13 |  4:14.55 |  137038  |  156142  
           9  | 34:41.68 |  4:13.66 |  156143  |  175183  
          10  | 38:55.59 |  4:29.01 |  175184  |  195359  
          11  | 43:24.60 |  3:29.21 |  195360  |  211055  
          12  | 46:54.06 |  4:27.43 |  211056  |  231123  


    范围状态及错误

    已选择范围

         文件名 C:\Users\陈洁丽 - Purely (HQCD).wav

         峰值电平 97.7 %
         范围质量 100.0 %
         复制 CRC FDDE0CF6
         复制成功

    没有错误发生

    状态报告结尾

    cover.jpg
    cd.jpg
    back.jpg

    密码.rar

    95 Bytes, 下载次数: 2

    售价: 10 金钱  [记录]

    评分

    参与人数 1威望 +30 金钱 +30 魅力 +30 等级积分 +30 收起 理由
    安妮宝贝 + 30 + 30 + 30 + 30

    查看全部评分

    回复

    使用道具 举报

    该用户从未签到

    1

    主题

    259

    帖子

    21 小时

    在线时间

    VIP会员

    Rank: 13Rank: 13Rank: 13

    威望
    329
    魅力
    329
    金钱
    159
    注册时间
    2017-3-21
    最后登录
    2019-5-29
    阅读权限
    130
    发表于 2018-9-17 23:48:44 | 显示全部楼层
    沙发 lifashang说:
    陈洁丽《Purely lily》正版原抓[WAV/百度云]  赞
    回复 支持 反对

    使用道具 举报

    该用户从未签到

    1

    主题

    259

    帖子

    21 小时

    在线时间

    VIP会员

    Rank: 13Rank: 13Rank: 13

    威望
    329
    魅力
    329
    金钱
    159
    注册时间
    2017-3-21
    最后登录
    2019-5-29
    阅读权限
    130
    发表于 2018-10-11 11:04:27 | 显示全部楼层
    板凳 lifashang说:
    提取码不对
    回复 支持 反对

    使用道具 举报

    您需要登录后才可以回帖 登录 | 立即注册

    本版积分规则

    关于我们|免责声明|手机版|小黑屋| 读屏族音乐论坛 ( 鄂ICP备15000846号 )  

    读屏族音乐论坛上的资源来源于互联网搜索,本站不提供下载和存储。
    如果页面信息侵犯了您的权益,请联系管理员邮箱: dupingzu@163.com 我们将在第一时间删除。

    GMT+8, 2019-6-20 14:55 , Processed in 0.239082 second(s), 29 queries , Gzip On.

    Powered by Discuz! X3.2

    © 2001-2013 Comsenz Inc.