开启辅助访问 每日签到 切换到宽版

读屏族音乐论坛

 找回密码
 立即注册
用心灵感知世界,用爱心成就未来,欢迎来到读屏族音乐论坛!这里是视障朋友温馨的港湾,也是明眼朋友娱乐的家园。“读屏族”人群是借助读屏工具操作电脑和手机上网的视障朋友(盲人),他们虽然有视力缺陷,但超越常人的听力,使他们对音乐有着自己的执着与珍爱。是音乐让我们相聚,音乐让我们快乐!忘我!陶醉!
查看: 212|回复: 10

[华语] Fyfilm枫叶影音珍藏-电影原声《大话西游》原声大碟.WAV

  [复制链接]

该用户从未签到

5

主题

44

帖子

12 小时

在线时间

初级会员

Rank: 1

威望
64
魅力
64
金钱
28
注册时间
2017-6-28
最后登录
2018-4-10
阅读权限
20
发表于 2018-3-29 12:27:58 | 显示全部楼层 |阅读模式
购买主题 已有 6 人购买  本主题需向作者支付 5 金钱 才能浏览



上一篇:群星《发烧金曲·金装影视》(2CD)聆听往日的经典[WAV+CUE/CT]
下一篇:邓丽君《邓丽君(台语)·海山经典名盘(ADMS)》WAV+CUE/CT
回复

使用道具 举报

  • TA的每日心情
    擦汗
    6 天前
  • 签到天数: 9 天

    [LV.3]偶尔看看II

    8

    主题

    36

    帖子

    16 小时

    在线时间

    初级会员

    Rank: 1

    威望
    145
    魅力
    146
    金钱
    250
    注册时间
    2018-3-29
    最后登录
    2018-4-19
    阅读权限
    20
    发表于 2018-3-29 12:36:23 | 显示全部楼层
    <
    沙发 枫叶原创说:回楼主Anonymousos
    Fyfilm枫叶影音珍藏本尊驾到
    回复 支持 反对

    使用道具 举报

  • TA的每日心情
    开心
    2017-10-27 12:50
  • 签到天数: 230 天

    [LV.7]常住居民III

    673

    主题

    1593

    帖子

    643 小时

    在线时间

    版主

    威望
    41871
    魅力
    41850
    金钱
    49017
    注册时间
    2015-1-1
    最后登录
    2018-4-22
    阅读权限
    150

    猪白羊座帅哥勋章

    发表于 2018-3-29 12:38:01 | 显示全部楼层
    板凳 乖乖猫说:
    感谢分享 周星星的大话西游电影还是很好看的 但是真不知道这电影还出过原声带
    回复 支持 反对

    使用道具 举报

  • TA的每日心情
    擦汗
    6 天前
  • 签到天数: 9 天

    [LV.3]偶尔看看II

    8

    主题

    36

    帖子

    16 小时

    在线时间

    初级会员

    Rank: 1

    威望
    145
    魅力
    146
    金钱
    250
    注册时间
    2018-3-29
    最后登录
    2018-4-19
    阅读权限
    20
    发表于 2018-3-29 13:03:22 | 显示全部楼层
    地板 枫叶原创说:
    Fyfilm枫叶影音珍藏本尊驾到
    回复 支持 反对

    使用道具 举报

  • TA的每日心情
    擦汗
    6 天前
  • 签到天数: 9 天

    [LV.3]偶尔看看II

    8

    主题

    36

    帖子

    16 小时

    在线时间

    初级会员

    Rank: 1

    威望
    145
    魅力
    146
    金钱
    250
    注册时间
    2018-3-29
    最后登录
    2018-4-19
    阅读权限
    20
    发表于 2018-3-29 13:04:43 | 显示全部楼层
    <
    5楼 枫叶原创说:回楼主Anonymousos
    Fyfilm枫叶影音珍藏本尊驾到
    回复 支持 反对

    使用道具 举报

  • TA的每日心情
    擦汗
    6 天前
  • 签到天数: 9 天

    [LV.3]偶尔看看II

    8

    主题

    36

    帖子

    16 小时

    在线时间

    初级会员

    Rank: 1

    威望
    145
    魅力
    146
    金钱
    250
    注册时间
    2018-3-29
    最后登录
    2018-4-19
    阅读权限
    20
    发表于 2018-3-29 13:05:49 | 显示全部楼层
    6楼 枫叶原创说:
    Fyfilm枫叶影音珍藏本尊驾到
    回复 支持 反对

    使用道具 举报

  • TA的每日心情
    擦汗
    6 天前
  • 签到天数: 9 天

    [LV.3]偶尔看看II

    8

    主题

    36

    帖子

    16 小时

    在线时间

    初级会员

    Rank: 1

    威望
    145
    魅力
    146
    金钱
    250
    注册时间
    2018-3-29
    最后登录
    2018-4-19
    阅读权限
    20
    发表于 2018-3-29 13:08:25 | 显示全部楼层
    7楼 枫叶原创说:
    Exact Audio Copy V0.99 prebeta 5

    EAC 抓取日志文件从7. 八月 2014, 19:29

    枫叶原创 / 齐天周大圣之西游双记

    使用驱动器  :BENQ    CDRW 5232X   Adapter: 0  ID: 0

    读取模式     : 保护
    使用精确流   : 是
    废除音频缓冲 : 是
    使用 C2 指针 : 否

    读取偏移校正                   : 0
    读取 Lead-In 和 Lead-Out       : 否
    用静音填充抓取中丢失偏移的采样 : 是
    去除首尾静音块                 : 否
    在 CRC 计算中使用了空样本      : 否
    已用接口                       : Win NT 及 2000 本地 Win32 接口

    所用输出格式 : 内部 WAV 函数
    样本格式     : 44.100 Hz;16 Bit;立体声


    被抓轨 CD 的 TOC

         音轨 |   开始   |   长度   | 起始扇区 | 结尾扇区
        --------------------------------------------------
           1  |  0:00.00 |  2:54.00 |       0  |   13049  
           2  |  2:54.00 |  4:18.00 |   13050  |   32399  
           3  |  7:12.00 |  1:03.00 |   32400  |   37124  
           4  |  8:15.00 |  3:05.25 |   37125  |   51024  
           5  | 11:20.25 |  2:25.25 |   51025  |   61924  
           6  | 13:45.50 |  4:33.50 |   61925  |   82449  
           7  | 18:19.25 |  3:58.37 |   82450  |  100336  
           8  | 22:17.62 |  2:12.13 |  100337  |  110249  
           9  | 24:30.00 |  1:23.12 |  110250  |  116486  
          10  | 25:53.12 |  5:26.50 |  116487  |  140986  
          11  | 31:19.62 |  7:16.00 |  140987  |  173686  


    范围状态及错误

    已选择范围

         文件名 G:\枫叶原创\周星驰大话西游电影原声1995滚石公司发行\枫叶原创 - 齐天周大圣之西游双记.wav

         峰值电平 98.9 %
         范围质量 99.9 %
         复制 CRC EE6B489A
         复制成功

    没有错误发生

    状态报告结尾
    回复 支持 反对

    使用道具 举报

  • TA的每日心情
    郁闷
    2018-4-13 09:40
  • 签到天数: 50 天

    [LV.5]常住居民I

    2

    主题

    290

    帖子

    79 小时

    在线时间

    VIP会员

    Rank: 13Rank: 13Rank: 13

    威望
    36
    魅力
    381
    金钱
    26
    注册时间
    2015-1-12
    最后登录
    2018-4-13
    阅读权限
    130
    发表于 2018-4-4 00:35:13 | 显示全部楼层
    8楼 天地人自和说:
    感谢楼主分享。但愿还来得及
    回复 支持 反对

    使用道具 举报

  • TA的每日心情
    开心
    4 天前
  • 签到天数: 305 天

    [LV.8]以坛为家I

    0

    主题

    232

    帖子

    66 小时

    在线时间

    VIP会员

    Rank: 13Rank: 13Rank: 13

    威望
    1287
    魅力
    1288
    金钱
    1022
    注册时间
    2016-10-15
    最后登录
    2018-4-19
    阅读权限
    130

    热心会员勋章

    发表于 2018-4-4 10:53:58 | 显示全部楼层
    9楼 zhulinqixian说:
    一直想找原声音乐专辑,今天算是碰巧了。
    回复 支持 反对

    使用道具 举报

  • TA的每日心情
    开心
    2018-4-5 10:25
  • 签到天数: 1 天

    [LV.1]初来乍到

    1

    主题

    22

    帖子

    4 小时

    在线时间

    初级会员

    Rank: 1

    威望
    22
    魅力
    22
    金钱
    18
    注册时间
    2018-4-5
    最后登录
    2018-4-17
    阅读权限
    20
    发表于 7 天前 | 显示全部楼层
    10楼 jhypzy说:
    哈哈,上面好像本尊驾到啦
    回复 支持 反对

    使用道具 举报

  • TA的每日心情
    开心
    昨天 19:20
  • 签到天数: 236 天

    [LV.7]常住居民III

    0

    主题

    181

    帖子

    70 小时

    在线时间

    初级会员

    Rank: 1

    威望
    161
    魅力
    161
    金钱
    64
    注册时间
    2017-7-29
    最后登录
    2018-4-22
    阅读权限
    20
    发表于 5 天前 | 显示全部楼层
    11楼 zjgdhjm说:
    本帖最后由 zjgdhjm 于 2018-4-19 20:42 编辑

    都过期了就不要收费了吧!
    回复 支持 反对

    使用道具 举报

    您需要登录后才可以回帖 登录 | 立即注册

    本版积分规则

    关于我们|免责声明|手机版|小黑屋| 读屏族音乐论坛 ( 鄂ICP备15000846号 )  

    读屏族音乐论坛上的资源来源于互联网搜索,本站不提供下载和存储。
    如果页面信息侵犯了您的权益,请联系管理员邮箱: dupingzu@163.com 我们将在第一时间删除。

    GMT+8, 2018-4-23 06:01 , Processed in 2.016975 second(s), 40 queries , Gzip On.

    Powered by Discuz! X3.2

    © 2001-2013 Comsenz Inc.