开启辅助访问 每日签到 切换到宽版

读屏族音乐论坛

 找回密码
 立即注册
用心灵感知世界,用爱心成就未来,欢迎来到读屏族音乐论坛!这里是视障朋友温馨的港湾,也是明眼朋友娱乐的家园。“读屏族”人群是借助读屏工具操作电脑和手机上网的视障朋友(盲人),他们虽然有视力缺陷,但超越常人的听力,使他们对音乐有着自己的执着与珍爱。是音乐让我们相聚,音乐让我们快乐!忘我!陶醉!
查看: 146|回复: 10

[华语] 王菲《从头认识王菲9CD 1王靖雯》[WAV/百度云]

  [复制链接]
  • TA的每日心情
    郁闷
    昨天 17:28
  • 签到天数: 20 天

    [LV.4]偶尔看看III

    35

    主题

    117

    帖子

    22 小时

    在线时间

    初级会员

    Rank: 1

    威望
    533
    魅力
    533
    金钱
    619
    注册时间
    2017-11-22
    最后登录
    2018-4-22
    阅读权限
    20
    发表于 2018-4-13 21:16:02 | 显示全部楼层 |阅读模式

    马上注册,结交更多好友,享用更多功能,让你轻松玩转社区。

    您需要 登录 才可以下载或查看,没有帐号?立即注册

    x
    让香港走进你的生活!!!  隆重推出:香港外交代购、娜娜为您服务[微笑] 。本站担保,绝对正品,原价代购,发货速捷,信誉至上。代购VX微信或QQ:383963078。让香港走进你的生活!!! 隆重推出:香港外交代购、娜娜为您服务[微笑] 。本站担保,绝对正品,原价代购,发货速捷,信誉至上。代购VX微信或QQ:383963078。
    楼主 inyongxia说:
    来自网络 感谢原创

    专辑名称: 从头认识 王菲 9CD
    歌手名称: 王菲
    发行时间: 2004年
    唱片公司: 环球/ 新宝艺 CINEPOLY
    语言: 粤语/国语
    地区: 香港

    专辑介绍:

      这是一套新宝艺CINE[POLY2004年出版的王菲(王靖雯)九张粤语专辑合集,包括《王靖雯》、《Everything》、《You're the Only One》、《Coming Home》、《执迷不悔》、《十万个为什么》、《胡思乱想》、《讨好自己》、《Di-Dar》) ,新宝艺时期经典歌曲一网打尽!

    专辑曲目:

    王靖雯 1989
    01. 无奈那天
    02. 藉口
    03. 有缘的话
    04. 温柔的手
    05. 尾班车
    06. 未平复的心
    07. 仍是旧句子
    08. 中间人
    09. 爱听谎言
    10. 新生
    游客,如果您要查看本帖隐藏内容请回复



    评分

    参与人数 1威望 +5 金钱 +5 魅力 +5 等级积分 +5 收起 理由
    哥特 + 5 + 5 + 5 + 5

    查看全部评分




    上一篇:王筝《叛逆之心》[FLAC/百度云]
    下一篇:王菲《从头认识王菲9CD 2 Everything》[WAV/百度云]
    回复

    使用道具 举报

  • TA的每日心情
    郁闷
    昨天 17:28
  • 签到天数: 20 天

    [LV.4]偶尔看看III

    35

    主题

    117

    帖子

    22 小时

    在线时间

    初级会员

    Rank: 1

    威望
    533
    魅力
    533
    金钱
    619
    注册时间
    2017-11-22
    最后登录
    2018-4-22
    阅读权限
    20
     楼主| 发表于 2018-4-13 21:20:09 | 显示全部楼层
    沙发 inyongxia说:
    PERFORMER "王靖雯"
    TITLE "王靖雯"
    FILE "王靖雯-王靖雯.wav" WAVE
      TRACK 01 AUDIO
        TITLE "无奈那天"
        PERFORMER "王靖雯"
        INDEX 01 00:00:00
      TRACK 02 AUDIO
        TITLE "藉口"
        PERFORMER "王靖雯"
        INDEX 00 04:54:26
        INDEX 01 04:57:26
      TRACK 03 AUDIO
        TITLE "有缘的话"
        PERFORMER "王靖雯"
        INDEX 00 09:33:27
        INDEX 01 09:36:27
      TRACK 04 AUDIO
        TITLE "温柔的手"
        PERFORMER "王靖雯"
        INDEX 00 13:14:50
        INDEX 01 13:17:50
      TRACK 05 AUDIO
        TITLE "尾班车"
        PERFORMER "王靖雯"
        INDEX 00 17:05:50
        INDEX 01 17:08:50
      TRACK 06 AUDIO
        TITLE "未平复的心"
        PERFORMER "王靖雯"
        INDEX 00 22:29:52
        INDEX 01 22:32:52
      TRACK 07 AUDIO
        TITLE "仍是旧句子"
        PERFORMER "王靖雯"
        INDEX 00 26:33:36
        INDEX 01 26:36:36
      TRACK 08 AUDIO
        TITLE "中间人"
        PERFORMER "王靖雯"
        INDEX 00 30:11:36
        INDEX 01 30:14:36
      TRACK 09 AUDIO
        TITLE "爱听谎言"
        PERFORMER "王靖雯"
        INDEX 00 34:39:74
        INDEX 01 34:42:74
      TRACK 10 AUDIO
        TITLE "新生"
        PERFORMER "王靖雯"
        INDEX 00 38:52:63
        INDEX 01 38:55:63
    回复 支持 反对

    使用道具 举报

  • TA的每日心情
    郁闷
    昨天 17:28
  • 签到天数: 20 天

    [LV.4]偶尔看看III

    35

    主题

    117

    帖子

    22 小时

    在线时间

    初级会员

    Rank: 1

    威望
    533
    魅力
    533
    金钱
    619
    注册时间
    2017-11-22
    最后登录
    2018-4-22
    阅读权限
    20
     楼主| 发表于 2018-4-13 21:23:09 | 显示全部楼层
    板凳 inyongxia说:
    PERFORMER "王靖雯"
    TITLE "EVERYTHING"
    FILE "王靖雯-EVERYTHING.WAV" WAVE
      TRACK 01 AUDIO
        TITLE "巴黎塔尖"
        PERFORMER "王靖雯"
        INDEX 01 00:00:00
      TRACK 02 AUDIO
        TITLE "Everything"
        PERFORMER "王靖雯"
        INDEX 00 04:24:41
        INDEX 01 04:27:41
      TRACK 03 AUDIO
        TITLE "游荡"
        PERFORMER "王靖雯"
        INDEX 00 08:49:43
        INDEX 01 08:52:43
      TRACK 04 AUDIO
        TITLE "可否抱紧我"
        PERFORMER "王靖雯"
        INDEX 00 13:34:17
        INDEX 01 13:37:17
      TRACK 05 AUDIO
        TITLE "斗快说笑话"
        PERFORMER "王靖雯"
        INDEX 00 17:45:51
        INDEX 01 17:48:51
      TRACK 06 AUDIO
        TITLE "My Loneliness"
        PERFORMER "王靖雯"
        INDEX 00 21:51:33
        INDEX 01 21:54:33
      TRACK 07 AUDIO
        TITLE "哭墙"
        PERFORMER "王靖雯"
        INDEX 00 26:00:31
        INDEX 01 26:03:31
      TRACK 08 AUDIO
        TITLE "无悔今夜"
        PERFORMER "王靖雯"
        INDEX 00 30:32:17
        INDEX 01 30:35:17
      TRACK 09 AUDIO
        TITLE "一刹那"
        PERFORMER "王靖雯"
        INDEX 00 34:22:64
        INDEX 01 34:25:64
      TRACK 10 AUDIO
        TITLE "激流"
        PERFORMER "王靖雯"
        INDEX 00 38:46:20
        INDEX 01 38:49:20
      TRACK 11 AUDIO
        TITLE "巴黎塔尖(Reprise)"
        PERFORMER "王靖雯"
        INDEX 00 43:45:68
        INDEX 01 43:48:68
    回复 支持 反对

    使用道具 举报

  • TA的每日心情

    2015-11-16 07:25
  • 签到天数: 3 天

    [LV.2]偶尔看看I

    28

    主题

    582

    帖子

    225 小时

    在线时间

    VIP会员

    Rank: 13Rank: 13Rank: 13

    威望
    1530
    魅力
    1486
    金钱
    167
    注册时间
    2015-1-25
    最后登录
    2018-4-20
    阅读权限
    130
    发表于 2018-4-14 08:19:15 | 显示全部楼层
    地板 东方园林说:
    拿走收藏了,感谢分享
    回复 支持 反对

    使用道具 举报

  • TA的每日心情
    奋斗
    6 小时前
  • 签到天数: 495 天

    [LV.9]以坛为家II

    0

    主题

    148

    帖子

    133 小时

    在线时间

    初级会员

    Rank: 1

    威望
    286
    魅力
    288
    金钱
    104
    注册时间
    2016-11-14
    最后登录
    2018-4-23
    阅读权限
    20
    发表于 2018-4-14 20:27:41 | 显示全部楼层
    5楼 风中云说:
    感觉王菲在宝丽金时期的唱片好听
    回复 支持 反对

    使用道具 举报

  • TA的每日心情

    2017-12-28 14:30
  • 签到天数: 86 天

    [LV.6]常住居民II

    4

    主题

    398

    帖子

    331 小时

    在线时间

    VIP会员

    Rank: 13Rank: 13Rank: 13

    威望
    194
    魅力
    1382
    金钱
    748
    注册时间
    2016-7-17
    最后登录
    2018-4-23
    阅读权限
    130

    热心会员勋章

    发表于 2018-4-15 16:59:10 | 显示全部楼层
    6楼 ddrk说:
    收藏,多谢分享。
    回复 支持 反对

    使用道具 举报

  • TA的每日心情
    开心
    2017-8-29 11:09
  • 签到天数: 1 天

    [LV.1]初来乍到

    0

    主题

    150

    帖子

    28 小时

    在线时间

    初级会员

    Rank: 1

    威望
    110
    魅力
    110
    金钱
    35
    注册时间
    2017-1-24
    最后登录
    2018-4-18
    阅读权限
    20
    发表于 7 天前 | 显示全部楼层
    7楼 e3102210说:
    好听的老歌,感谢分享!
    回复 支持 反对

    使用道具 举报

  • TA的每日心情
    开心
    昨天 05:32
  • 签到天数: 47 天

    [LV.5]常住居民I

    0

    主题

    511

    帖子

    50 小时

    在线时间

    初级会员

    Rank: 1

    威望
    836
    魅力
    836
    金钱
    399
    注册时间
    2015-7-13
    最后登录
    2018-4-22
    阅读权限
    20
    发表于 6 天前 | 显示全部楼层
    8楼 jrz2004说:
    致谢楼主分享。好礼抱啊。
    回复 支持 反对

    使用道具 举报

    该用户从未签到

    1

    主题

    19

    帖子

    2 小时

    在线时间

    初级会员

    Rank: 1

    威望
    21
    魅力
    21
    金钱
    12
    注册时间
    2017-3-17
    最后登录
    2018-4-18
    阅读权限
    20
    发表于 5 天前 | 显示全部楼层
    9楼 gzh888说:
    喜欢王菲,收藏了,多谢分享。
    回复 支持 反对

    使用道具 举报

    该用户从未签到

    1

    主题

    74

    帖子

    18 小时

    在线时间

    初级会员

    Rank: 1

    威望
    54
    魅力
    54
    金钱
    55
    注册时间
    2017-8-11
    最后登录
    2018-4-20
    阅读权限
    20
    发表于 3 天前 | 显示全部楼层
    10楼 zlh199613说:
    经典,非常感谢,辛苦了,版主是唱片公司的吧!!!
    回复 支持 反对

    使用道具 举报

  • TA的每日心情
    开心
    2018-4-14 20:55
  • 签到天数: 5 天

    [LV.2]偶尔看看I

    1

    主题

    6

    帖子

    4 小时

    在线时间

    初级会员

    Rank: 1

    威望
    6
    魅力
    6
    金钱
    7
    注册时间
    2018-1-6
    最后登录
    2018-4-22
    阅读权限
    20
    发表于 昨天 20:45 | 显示全部楼层
    11楼 小闺蜜说:
    收藏,谢谢分享
    回复 支持 反对

    使用道具 举报

    您需要登录后才可以回帖 登录 | 立即注册

    本版积分规则

    关于我们|免责声明|手机版|小黑屋| 读屏族音乐论坛 ( 鄂ICP备15000846号 )  

    读屏族音乐论坛上的资源来源于互联网搜索,本站不提供下载和存储。
    如果页面信息侵犯了您的权益,请联系管理员邮箱: dupingzu@163.com 我们将在第一时间删除。

    GMT+8, 2018-4-23 06:02 , Processed in 1.691025 second(s), 28 queries , Gzip On.

    Powered by Discuz! X3.2

    © 2001-2013 Comsenz Inc.